#TITLE:Hate Don't Hate;
#SUBTITLE:Expi3nze;
#ARTIST:Dal Shabet;
#TITLETRANSLIT:;
#SUBTITLETRANSLIT:;
#ARTISTTRANSLIT:;
#CREDIT:;
#BANNER:bn.png;
#BACKGROUND:bg.png;
#LYRICSPATH:;
#CDTITLE:cdtitle.png;
#MUSIC:Hate Don't Hate.mp3;
#OFFSET:0.040;
#SAMPLESTART:100.000;
#SAMPLELENGTH:12.000;
#SELECTABLE:YES;
#BPMS:0.000=123.000,20.000=246.000,20.500=61.500,20.750=123.000,116.000=61.500,116.333=246.000,117.000=123.000,233.000=-61.500,235.000=123.000;
#STOPS:;
#BGCHANGES:;
// cache tags:
#FIRSTBEAT:3.500;
#LASTBEAT:305.750;
#SONGFILENAME:Songs/Expi3nze 4th Collection/Hate Don't Hate  (Dal Shabet)/Hate Don't Hate.sm;
#HASMUSIC:1;
#HASBANNER:1;
#MUSICLENGTH:148.509;
// end cache tags

//---------------dance-single - ----------------
#NOTES:
     dance-single:
     :
     Hard:
     15:
     1.000,0.952,1.000,0.444,0.478,682.000,328.000,66.000,0.000,87.000:
0000
0000
0000
0000
0000
0000
0000
0200
,
0000
0000
0020
0000
1030
1000
1020
0000
,
1030
1000
1020
0000
1030
1000
1020
0000
,
0031
0010
0001
0010
0002
0000
0000
0000
1003
0000
1000
0000
1020
0000
0000
0000
,
1030
0000
1000
0010
2000
0000
0000
0000
3010
0000
0010
0000
0020
0000
0000
0000
,
1331
0000
0101
0101
1001
1010
1002
0000
,
0213
0001
0010
0001
1310
0000
1010
0000
1001
0000
1100
0000
2201
0001
0000
0301
,
3110
1000
0011
0110
1100
0101
0102
0000
,
2103
0010
0100
0001
3110
0000
0110
0000
1100
0000
0011
0000
1000
1000
1000
1000
,
1100
0001
0101
1010
1010
0011
2010
0000
,
3021
0001
1000
1000
1130
0000
0011
0000
1100
0000
1100
0000
2021
0001
0000
0130
,
3011
1000
1010
1010
0011
0110
2100
0000
,
3020
0000
1000
1000
1130
0000
1100
0000
1001
0000
1001
0000
0001
0001
0001
0001
,
0011
1000
0011
0000
0111
0000
1000
0000
0011
0000
1000
0000
0011
0000
1000
0000
,
1001
1000
0011
1000
0011
1000
0010
0010
,
0101
1010
0010
0000
0011
1000
0011
1000
,
0011
0000
1000
0000
0010
0000
0010
0000
1001
0000
1000
0000
0011
0000
1000
1000
,
0011
0000
0011
0100
1000
0000
0010
0000
0010
0000
1000
0010
0101
0010
1000
0100
,
0011
1000
0100
0010
0100
0000
1000
0000
0011
0000
0011
0000
1000
0000
0001
0010
,
1100
0001
0010
0100
1000
0000
0010
0000
0101
0000
0101
0000
0010
0000
0100
0000
,
0011
1000
0100
0010
0100
0000
0001
0000
0011
0000
0011
0000
1000
0100
0010
1000
,
0100
0000
0010
1000
0020
0000
1100
0000
2200
0000
0001
0000
3032
0000
1000
1000
,
1313
0000
0001
0000
1100
0000
0001
0000
1100
0000
0001
0000
1100
0000
0001
0100
,
0011
0000
1001
0000
1100
0000
1000
0000
0011
0000
1000
0000
0011
0000
1000
1000
,
0011
0000
1000
0000
0011
0000
2000
0000
0200
0000
3020
0000
2301
0001
0231
0001
,
3021
0000
0301
0001
1031
0000
1000
0000
1001
0000
0001
0000
1001
0000
1000
1000
,
0010
1000
1010
0001
1010
0100
1010
0001
,
1010
0000
0001
0000
1000
1000
0010
0000
1000
1000
0010
0000
1002
0000
1000
0000
,
1013
0100
0100
0001
0100
0100
0002
0020
,
1133
0000
0000
0000
0011
0000
0011
0000
1001
0000
1100
0000
1001
0010
1000
0000
,
0011
0001
0001
0000
1100
0000
1001
0000
1001
0000
0011
0000
1010
1000
0001
0000
,
0101
0000
0010
0000
0101
0000
0101
0000
1010
0000
1010
0000
0001
0010
0100
0000
,
0011
1000
0100
0010
0001
0000
1100
0000
1100
0000
0101
0000
0100
0100
0100
0100
,
0011
0000
1001
0000
1001
0000
1100
0000
1001
0000
1100
0000
1001
0001
0001
0000
,
1000
0100
0010
0001
1100
0000
1001
0000
0011
0000
0101
0000
1100
1000
0001
0000
,
0011
1000
1010
0101
1010
1010
1010
0011
,
0110
0000
1000
1000
0011
0000
1001
0000
1001
0000
1100
0000
1000
0100
1000
1000
,
1001
0001
1100
0000
0101
0000
0101
0000
1001
0000
1010
0000
1002
0000
0000
0000
,
0213
0001
0010
0001
1310
0000
1010
0000
1001
0000
1100
0000
2201
0001
0000
0301
,
3110
1000
0011
0110
1100
0101
0102
0000
,
2103
0010
0100
0001
3110
0000
0110
0000
1100
0000
0011
0000
1000
1000
1000
1000
,
1100
0101
0101
1010
1010
0011
2010
0000
,
3021
0001
1000
1000
1130
0000
0011
0000
1100
0000
1100
0000
2021
0001
0000
0130
,
3011
1000
1010
1010
0011
0110
2100
0000
,
3020
0000
1000
1000
1130
0000
1100
0000
1001
0000
0101
0000
0001
0001
0001
0001
,
0011
1000
0011
0000
1112
0000
0000
0000
0000
0000
0000
0000
0000
0000
0000
0000
,
0000
0000
0000
0000
1113
0001
0010
0100
1000
0000
0010
0010
0000
0100
0010
0000
,
0111
0000
1000
0100
1000
0000
0010
0010
0000
1000
0100
0001
1010
0000
1010
0000
,
0111
0000
0000
0100
1010
0100
0001
0010
0100
0000
0001
0001
0000
0100
0010
0000
,
1101
0000
1010
0000
1000
1000
1000
0010
0101
1000
0010
0010
0011
0001
0001
0001
,
0201
0020
1331
1100
1001
0010
2100
0000
,
3010
0001
0010
0001
0110
0000
1001
0000
0110
0000
0010
0000
0100
0010
0100
0000
,
0101
0000
0001
0000
1100
0000
1001
0000
1010
0000
1010
0000
0012
0000
0000
1000
,
1103
0001
0010
0100
1001
0000
0011
0000
1001
0000
1000
0000
0021
0000
0032
0000
,
0000
0000
1003
1000
0010
1000
0011
1000
,
0100
0010
0111
1000
0111
1000
0111
1000
,
0111
0000
1000
0000
0010
0010
0010
0010
0011
0001
0001
0001
0101
0100
0100
0100
,
0110
0010
0010
0010
2010
0000
0000
0000
0000
0000
0000
0000
0000
0000
0000
0000
,
3111
0000
0000
0000
,
0000
0000
0000
0000
0000
0000
0011
0011
,
1001
0000
1100
0000
1001
0010
1000
0000
0011
0001
0001
0000
1100
0000
1001
0000
,
1001
0000
0011
0000
1010
1000
0001
0000
0101
0000
0010
0000
0101
0000
0101
0000
,
1010
0000
1010
0000
0001
0010
0100
0000
0011
1000
0100
0010
0001
0000
1100
0000
,
1100
0000
0101
0000
0100
0100
0100
0100
0011
0000
1001
0000
1001
0000
1100
0000
,
1001
0000
1100
0000
1001
0001
0001
0000
1000
0100
0010
0001
1100
0000
1001
0000
,
0011
0000
0101
0000
1100
1000
0001
0000
0011
0000
1000
0000
1010
0000
0101
0000
,
1010
0000
1010
0000
1010
0000
0011
0000
0110
0000
1000
1000
0011
0000
1001
0000
,
1001
0000
1100
0000
1000
0100
1000
1000
1001
0001
1100
0000
0101
0000
0101
0000
,
1001
0000
1010
0000
1002
0000
0000
0000
0213
0001
0010
0001
1310
0000
1010
0000
,
1001
0000
1100
0000
2201
0001
0000
0301
3110
0000
1000
0000
0011
0000
0110
0000
,
1100
0000
0101
0000
0102
0000
0000
0000
2103
0010
0100
0001
3110
0000
0110
0000
,
1100
0000
0011
0000
1000
1000
1000
1000
1100
0000
0101
0000
0101
0000
1010
0000
,
1010
0000
0011
0000
2010
0000
0000
0000
3021
0001
1000
1000
1130
0000
0011
0000
,
1100
0000
1100
0000
2021
0001
0000
0130
3011
0000
1000
0000
1010
0000
1010
0000
,
0011
0000
0110
0000
2100
0000
0000
0000
3020
0000
1000
1000
1130
0000
1100
0000
,
1001
0000
0101
0000
0001
0001
0001
0001
0011
1000
0011
0000
1000
0000
0010
0000
,
0010
0000
0010
0000
0001
0100
0000
0010
0000
0000
0000
0000
0000
0000
0000
0000
;
